[ オンエアリストに戻る ]
TITLE "Heavy Metal Syndicate #1170"
FILE "2013-07-14.mp3" WAVE
  TRACK 01 AUDIO
    TITLE "DON'T LOOK BACK"
    PERFORMER "QUEENSRYCHE : Queensrÿche"
    INDEX 01 00:00:00

  TRACK 02 AUDIO
    TITLE "KRUSH"
    PERFORMER "NIACIN : Krush"
    INDEX 01 13:33:58

  TRACK 03 AUDIO
    TITLE "THE DEVILS CUT"
    PERFORMER "WHITE WIZZARD : The Devils Cut"
    INDEX 01 19:28:50

  TRACK 04 AUDIO
    TITLE "FOR YOUR OWN GOOD"
    PERFORMER "TURISAS : Turisas 2013"
    INDEX 01 24:58:54

  TRACK 05 AUDIO
    TITLE "ROCKIN' ALL OVER THE WORLD (Bula Edit)"
    PERFORMER "STATUS QUO : Bula Quo! (Soundtrack)"
    INDEX 01 31:52:73

  TRACK 06 AUDIO
    TITLE "Introduction: BLINDED BY THE LIGHT"
    PERFORMER "BRUCE SPRINGSTEEN : Greetings from Asbury Park, N.J."
    INDEX 01 44:15:71

  TRACK 07 AUDIO
    TITLE "Classic rock: BLINDED BY THE LIGHT"
    PERFORMER "MANFRED MANN'S EARTH BAND : The Roaring Silence"
    INDEX 01 49:11:37


SEO [PR] おまとめローン 冷え性対策 坂本龍馬 動画掲示板 レンタルサーバー SEO