[ オンエアリストに戻る ]
TITLE "Heavy Metal Syndicate #1169"
FILE "2013-07-07.mp3" WAVE
  TRACK 01 AUDIO
    TITLE "X2 / WHERE DREAMS GO TO DIE"
    PERFORMER "QUEENSRYCHE : Queensrÿche"
    INDEX 01 00:00:00

  TRACK 02 AUDIO
    TITLE "INTO THE FREE"
    PERFORMER "TURISAS : Turisas 2013"
    INDEX 01 19:15:01

  TRACK 03 AUDIO
    TITLE "NEVER LEAVE A FRIEND BEHIND"
    PERFORMER "STATUS QUO : Bula Quo! (Soundtrack)"
    INDEX 01 25:18:06

  TRACK 04 AUDIO
    TITLE "UNDER YOUR INFLUENCE"
    PERFORMER "BREAKING ARROWS : Breaking Arrows"
    INDEX 01 29:53:37

  TRACK 05 AUDIO
    TITLE "Introduction: I'M GONNA LIVE TILL I DIE"
    PERFORMER "FRANK SINATRA and RAY ANTHONY and His Orchestra : Melody of Love (single)"
    INDEX 01 47:44:30

  TRACK 06 AUDIO
    TITLE "Classic rock: I'M GONNA LIVE TILL I DIE"
    PERFORMER "HIBRIA : Blind Ride"
    INDEX 01 51:54:03


SEO [PR] おまとめローン 冷え性対策 坂本龍馬 動画掲示板 レンタルサーバー SEO