[ オンエアリストに戻る ]
TITLE "Heavy Metal Syndicate #1168"
FILE "2013-06-30.mp3" WAVE
  TRACK 01 AUDIO
    TITLE "FALLOUT"
    PERFORMER "QUEENSRYCHE : Queensrÿche"
    INDEX 01 00:00:00

  TRACK 02 AUDIO
    TITLE "LIFT ME UP"
    PERFORMER "FIVE FINGER DEATH PUNCH : The Wrong Side of Heaven and the Righteous Side of Hell volume 1"
    INDEX 01 14:46:39

  TRACK 03 AUDIO
    TITLE "TORPEDO OF TRUTH"
    PERFORMER "WHITE WIZZARD : The Devils Cut"
    INDEX 01 20:33:35

  TRACK 04 AUDIO
    TITLE "BETWEEN HEAVEN AND HELL (Live 2012)"
    PERFORMER "FIREWIND : Apotheosis - Live 2012"
    INDEX 01 25:41:44

  TRACK 05 AUDIO
    TITLE "CAR CRASH RED"
    PERFORMER "NIACIN : Krush"
    INDEX 01 32:39:06

  TRACK 06 AUDIO
    TITLE "Introduction: I DON'T NEED NO DOCTOR"
    PERFORMER "RAY CHARLES : I Don't Need No Doctor (single)"
    INDEX 01 47:02:61

  TRACK 07 AUDIO
    TITLE "Classic rock: I DON'T NEED NO DOCTOR"
    PERFORMER "W.A.S.P. : Inside the Electric Circus"
    INDEX 01 51:03:10


SEO [PR] おまとめローン 冷え性対策 坂本龍馬 動画掲示板 レンタルサーバー SEO