[ オンエアリストに戻る ]
TITLE "Heavy Metal Syndicate #1167"
FILE "2013-06-23.mp3" WAVE
  TRACK 01 AUDIO
    TITLE "WE WILL FIND A WAY"
    PERFORMER "TIMO TOLKKI'S AVALON : The Land of New Hope"
    INDEX 01 00:00:00

  TRACK 02 AUDIO
    TITLE "BLACK NIGHT OF MAGIC"
    PERFORMER "MASTERPLAN : Novum Initium"
    INDEX 01 19:41:10

  TRACK 03 AUDIO
    TITLE "LIGHTNING IN MY HANDS"
    PERFORMER "WHITE WIZZARD : The Devils Cut"
    INDEX 01 25:57:56

  TRACK 04 AUDIO
    TITLE "TEARS FALLING HEAVY"
    PERFORMER "BREAKING ARROWS : Breaking Arrows"
    INDEX 01 33:41:16

  TRACK 05 AUDIO
    TITLE "Introduction: LUCILLE"
    PERFORMER "LITTLE RICHARD : Little Richard"
    INDEX 01 43:33:62

  TRACK 06 AUDIO
    TITLE "Classic rock: LUCILLE (Live 1972)"
    PERFORMER "DEEP PURPLE : Deep Purple in Concert (Digitally remastered)"
    INDEX 01 47:45:73


SEO [PR] おまとめローン 冷え性対策 坂本龍馬 動画掲示板 レンタルサーバー SEO