[ オンエアリストに戻る ]
TITLE "Heavy Metal Syndicate #1166"
FILE "2013-06-16.mp3" WAVE
  TRACK 01 AUDIO
    TITLE "NAÏVETÉ IN BLACK"
    PERFORMER "BLACK SABBATH : 13"
    INDEX 01 00:00:00

  TRACK 02 AUDIO
    TITLE "DEADLY VENGEANCE"
    PERFORMER "HIBRIA : Silent Revenge"
    INDEX 01 14:52:20

  TRACK 03 AUDIO
    TITLE "OUR OWN MESSIAH"
    PERFORMER "ORPHANED LAND : All Is One"
    INDEX 01 21:49:13

  TRACK 04 AUDIO
    TITLE "COLD"
    PERFORMER "QUEENSRYCHE : Frequency Unknown"
    INDEX 01 27:33:59

  TRACK 05 AUDIO
    TITLE "DARK AND TORTURED UNIVERSE"
    PERFORMER "NONEXIST : From My Cold Dead Hands"
    INDEX 01 32:24:00

  TRACK 06 AUDIO
    TITLE "Introduction: I AM A ROCK"
    PERFORMER "SIMON & GARFUNKEL : Sounds of Silence (Digitally remastered)"
    INDEX 01 45:14:55

  TRACK 07 AUDIO
    TITLE "Classic rock: I AM A ROCK"
    PERFORMER "SHAW BLADES : Influence"
    INDEX 01 49:19:43


SEO [PR] おまとめローン 冷え性対策 坂本龍馬 動画掲示板 レンタルサーバー SEO