[ オンエアリストに戻る ]
TITLE "Heavy Metal Syndicate #1165"
FILE "2013-06-09.mp3" WAVE
  TRACK 01 AUDIO
    TITLE "KINGMAKER"
    PERFORMER "MEGADETH : Super Collider"
    INDEX 01 00:00:00

  TRACK 02 AUDIO
    TITLE "SLAVE"
    PERFORMER "QUEENSRYCHE : Frequency Unknown"
    INDEX 01 17:09:17

  TRACK 03 AUDIO
    TITLE "ALL IS ONE"
    PERFORMER "ORPHANED LAND : All Is One"
    INDEX 01 23:14:00

  TRACK 04 AUDIO
    TITLE "THE SINISTER SUPREMACY"
    PERFORMER "DARKANE : The Sinister Supremacy"
    INDEX 01 28:51:66

  TRACK 05 AUDIO
    TITLE "SANDMAN (Live)"
    PERFORMER "BEATALLICA : Abbey Load"
    INDEX 01 35:33:52

  TRACK 06 AUDIO
    TITLE "Introduction: JUMP"
    PERFORMER "VAN HALEN : 1984 (Digitally remastered)"
    INDEX 01 46:02:69

  TRACK 07 AUDIO
    TITLE "Classic rock: JUMP"
    PERFORMER "AZTEC CAMERA : All I Need Is Everything (single)"
    INDEX 01 49:06:52


SEO [PR] おまとめローン 冷え性対策 坂本龍馬 動画掲示板 レンタルサーバー SEO