[ オンエアリストに戻る ]
TITLE "Heavy Metal Syndicate #1164"
FILE "2013-06-02.mp3" WAVE
  TRACK 01 AUDIO
    TITLE "END OF THE BEGINNING"
    PERFORMER "BLACK SABBATH : 13"
    INDEX 01 00:00:00

  TRACK 02 AUDIO
    TITLE "I SAW HER STANDING THERE"
    PERFORMER "BEATALLICA : Abbey Load"
    INDEX 01 21:06:21

  TRACK 03 AUDIO
    TITLE "THE CITY OF PEACE"
    PERFORMER "DARK MOOR : Ars Musica"
    INDEX 01 26:51:34

  TRACK 04 AUDIO
    TITLE "FLESH FALLS FROM THE BONE"
    PERFORMER "NONEXIST : From My Cold Dead Hands"
    INDEX 01 33:30:07

  TRACK 05 AUDIO
    TITLE "Introduction: STRANGER TO HIMSELF"
    PERFORMER "TRAFFIC : John Barleycorn Must Die (Digitally remastered)"
    INDEX 01 44:18:50

  TRACK 06 AUDIO
    TITLE "Classic rock: STRANGER TO HIMSELF"
    PERFORMER "FIREBIRD : Firebird"
    INDEX 01 49:42:11


SEO [PR] おまとめローン 冷え性対策 坂本龍馬 動画掲示板 レンタルサーバー SEO