[ オンエアリストに戻る ]
TITLE "Heavy Metal Syndicate #1163"
FILE "2013-05-26.mp3" WAVE
  TRACK 01 AUDIO
    TITLE "LOST"
    PERFORMER "OUTRAGE : Outraged"
    INDEX 01 00:00:00

  TRACK 02 AUDIO
    TITLE "TRANSFERENCE"
    PERFORMER "CHILDREN OF BODOM : Halo of Blood"
    INDEX 01 13:41:73

  TRACK 03 AUDIO
    TITLE "JUMP THE GUN (Live 2004)"
    PERFORMER "TIM CHRISTENSEN : Live at Abbey Road Studios 2004"
    INDEX 01 20:27:61

  TRACK 04 AUDIO
    TITLE "MAVERICKS AND MYSTICS"
    PERFORMER "PURSON : The Circle and the Blue Door"
    INDEX 01 25:47:08

  TRACK 05 AUDIO
    TITLE "UNSTOPPABLE MOMENTUM"
    PERFORMER "JOE SATRIANI : Unstoppable Momentum"
    INDEX 01 32:07:58

  TRACK 06 AUDIO
    TITLE "Introduction: UNCHAINED MELODY"
    PERFORMER "RIGHTEOUS BROTHERS : Just Once in My Life"
    INDEX 01 45:31:45

  TRACK 07 AUDIO
    TITLE "Classic rock: UNCHAINED MELODY"
    PERFORMER "JOE LYNN TURNER : Under Cover"
    INDEX 01 49:10:21


SEO [PR] おまとめローン 冷え性対策 坂本龍馬 動画掲示板 レンタルサーバー SEO