[ オンエアリストに戻る ]
TITLE "Heavy Metal Syndicate #1162"
FILE "2013-05-19.mp3" WAVE
  TRACK 01 AUDIO
    TITLE "STEELHAMMER"
    PERFORMER "U.D.O. : Steelhammer"
    INDEX 01 00:00:00

  TRACK 02 AUDIO
    TITLE "WE ARE ONE"
    PERFORMER "WINERY DOGS : The Winery Dogs"
    INDEX 01 16:29:27

  TRACK 03 AUDIO
    TITLE "READY TO ROCK"
    PERFORMER "AIRBOURNE : Black Dog Barking"
    INDEX 01 22:17:40

  TRACK 04 AUDIO
    TITLE "DANCER AND THE MOON"
    PERFORMER "BLACKMORE'S NIGHT : Dancer and the Moon"
    INDEX 01 27:00:53

  TRACK 05 AUDIO
    TITLE "APATHETIC"
    PERFORMER "DARK TRANQUILLITY : Construct"
    INDEX 01 32:31:14

  TRACK 06 AUDIO
    TITLE "Introduction: CROSS-EYED MARY"
    PERFORMER "JETHRO TULL : Aqualung (Digitally remastered)"
    INDEX 01 47:30:23

  TRACK 07 AUDIO
    TITLE "Classic rock: CROSS-EYED MARY"
    PERFORMER "IRON MAIDEN : The Trooper (single)"
    INDEX 01 51:55:54


SEO [PR] おまとめローン 冷え性対策 坂本龍馬 動画掲示板 レンタルサーバー SEO