[ オンエアリストに戻る ]
TITLE "Heavy Metal Syndicate #1161"
FILE "2013-05-12.mp3" WAVE
  TRACK 01 AUDIO
    TITLE "THE MOON IS SHINING (SOMEWHERE OVER THE SEA)"
    PERFORMER "BLACKMORE'S NIGHT : Dancer and the Moon"
    INDEX 01 00:00:00

  TRACK 02 AUDIO
    TITLE "IT'LL BE ME"
    PERFORMER "DEEP PURPLE : Now What?! (CD+DVD)"
    INDEX 01 14:19:14

  TRACK 03 AUDIO
    TITLE "BABYLON"
    PERFORMER "TOM KEIFER : The Way Life Goes"
    INDEX 01 19:19:38

  TRACK 04 AUDIO
    TITLE "LOLA MONTEZ"
    PERFORMER "VOLBEAT : Outlaw Gentlemen & Shady Ladies"
    INDEX 01 23:52:15

  TRACK 05 AUDIO
    TITLE "NO ONE FITS ME (BETTER THAN YOU)"
    PERFORMER "AIRBOURNE : Black Dog Barking"
    INDEX 01 30:08:03

  TRACK 06 AUDIO
    TITLE "THE SCIENCE OF NOISE"
    PERFORMER "DARK TRANQUILLITY : Construct"
    INDEX 01 33:41:73

  TRACK 07 AUDIO
    TITLE "Classic rock: AGGRESSIVE PERFECTOR"
    PERFORMER "SLAYER : Metal Massacre 3 (Compilation)"
    INDEX 01 50:13:63


SEO [PR] おまとめローン 冷え性対策 坂本龍馬 動画掲示板 レンタルサーバー SEO