[ オンエアリストに戻る ]
TITLE "Heavy Metal Syndicate #1160"
FILE "2013-05-05.mp3" WAVE
  TRACK 01 AUDIO
    TITLE "HALO OF BLOOD"
    PERFORMER "CHILDREN OF BODOM : Halo of Blood"
    INDEX 01 00:00:00

  TRACK 02 AUDIO
    TITLE "PEARL HART"
    PERFORMER "VOLBEAT : Outlaw Gentlemen & Shady Ladies"
    INDEX 01 12:20:40

  TRACK 03 AUDIO
    TITLE "SICK OF IT"
    PERFORMER "SKILLET : Rise"
    INDEX 01 18:32:64

  TRACK 04 AUDIO
    TITLE "Reissue: LOCOMOTIVE"
    PERFORMER "MAD SEASON : Above (Deluxe edition)"
    INDEX 01 25:29:35

  TRACK 05 AUDIO
    TITLE "OPEN EYES"
    PERFORMER "CONDITIONS : Full of War"
    INDEX 01 31:03:24

  TRACK 06 AUDIO
    TITLE "Introduction: GIMME! GIMME! GIMME! (A MAN AFTER MIDNIGHT)"
    PERFORMER "ABBA : Greatest Hits Vol. 2"
    INDEX 01 43:39:22

  TRACK 07 AUDIO
    TITLE "Classic rock: GIMME! GIMME! GIMME! (A Man After Midnight)"
    PERFORMER "YNGWIE MALMSTEEN : Anthology 1994-1999"
    INDEX 01 48:29:08


SEO [PR] おまとめローン 冷え性対策 坂本龍馬 動画掲示板 レンタルサーバー SEO