[ オンエアリストに戻る ]
TITLE "Heavy Metal Syndicate #1159"
FILE "2013-04-28.mp3" WAVE
  TRACK 01 AUDIO
    TITLE "GOD IS DEAD?"
    PERFORMER "BLACK SABBATH : 13"
    INDEX 01 00:00:00

  TRACK 02 AUDIO
    TITLE "WASTE OF SKIN"
    PERFORMER "CHILDREN OF BODOM : Halo of Blood"
    INDEX 01 21:23:68

  TRACK 03 AUDIO
    TITLE "MOOD ELEVATOR"
    PERFORMER "TOM KEIFER : The Way Life Goes"
    INDEX 01 27:26:44

  TRACK 04 AUDIO
    TITLE "ALL THE TIME IN THE WORLD"
    PERFORMER "DEEP PURPLE : Now What?!"
    INDEX 01 31:11:71

  TRACK 05 AUDIO
    TITLE "CLEARING THE SLATE"
    PERFORMER "RESISTANCE : Scars"
    INDEX 01 36:36:53

  TRACK 06 AUDIO
    TITLE "Classic rock: MORE THAN A FEELING"
    PERFORMER "BOSTON : Boston (Digitally remastered)"
    INDEX 01 48:53:40


SEO [PR] おまとめローン 冷え性対策 坂本龍馬 動画掲示板 レンタルサーバー SEO