[ オンエアリストに戻る ]
TITLE "Heavy Metal Syndicate #1158"
FILE "2013-04-21.mp3" WAVE
  TRACK 01 AUDIO
    TITLE "BALLAD OF THE LOWER EAST SIDE"
    PERFORMER "MICHAEL MONROE : Ballad of the Lower East Side (download single)"
    INDEX 01 00:00:00

  TRACK 02 AUDIO
    TITLE "PRAY OUT LOUD"
    PERFORMER "BURNING RAIN : Epic Obsession"
    INDEX 01 11:56:09

  TRACK 03 AUDIO
    TITLE "SOLID GROUND"
    PERFORMER "TOM KEIFER : The Way Life Goes"
    INDEX 01 17:55:37

  TRACK 04 AUDIO
    TITLE "CAPE OF OUR HERO"
    PERFORMER "VOLBEAT : Outlaw Gentlemen & Shady Ladies"
    INDEX 01 23:14:56

  TRACK 05 AUDIO
    TITLE "THE SERPENT KING"
    PERFORMER "RESISTANCE : Scars"
    INDEX 01 29:15:69

  TRACK 06 AUDIO
    TITLE "TROUBLED LOVE"
    PERFORMER "FAIR WARNING : Sundancer"
    INDEX 01 33:05:13

  TRACK 07 AUDIO
    TITLE "Introduction: BYE BYE JOHNNY"
    PERFORMER "CHUCK BERRY : Rockin' at the Hops"
    INDEX 01 45:18:21

  TRACK 08 AUDIO
    TITLE "Classic rock: BYE BYE JOHNNY"
    PERFORMER "STATUS QUO : On the Level"
    INDEX 01 48:51:18


SEO [PR] おまとめローン 冷え性対策 坂本龍馬 動画掲示板 レンタルサーバー SEO