[ オンエアリストに戻る ]
TITLE "Heavy Metal Syndicate #1157"
FILE "2013-04-14.mp3" WAVE
  TRACK 01 AUDIO
    TITLE "EMPIRE OF THE UNDEAD"
    PERFORMER "GAMMA RAY : Master of Confusion (EP)"
    INDEX 01 00:00:00

  TRACK 02 AUDIO
    TITLE "NATURAL HIGH"
    PERFORMER "FAIR WARNING : Sundancer"
    INDEX 01 11:52:08

  TRACK 03 AUDIO
    TITLE "LIVE IT UP"
    PERFORMER "AIRBOURNE : Black Dog Barking"
    INDEX 01 17:30:64

  TRACK 04 AUDIO
    TITLE "SIX FEET DEEPER"
    PERFORMER "WINERY DOGS : The Winery Dogs"
    INDEX 01 21:30:12

  TRACK 05 AUDIO
    TITLE "PER ASPERA AD INFERI"
    PERFORMER "GHOST B.C. : Infestissumam"
    INDEX 01 28:02:12

  TRACK 06 AUDIO
    TITLE "CATHEDRAL OF THE DAMNED"
    PERFORMER "CATHEDRAL : The Last Spire"
    INDEX 01 34:47:23

  TRACK 07 AUDIO
    TITLE "Introduction: JOHNNY B. GOODE (Re-Recorded)"
    PERFORMER "CHUCK BERRY : Chuck Berry's Golden Hits"
    INDEX 01 45:49:43

  TRACK 08 AUDIO
    TITLE "Classic rock: JOHNNY B. GOODE"
    PERFORMER "JUDAS PRIEST : Ram It Down (Digitally remastered)"
    INDEX 01 49:25:22


SEO [PR] おまとめローン 冷え性対策 坂本龍馬 動画掲示板 レンタルサーバー SEO