[ オンエアリストに戻る ]
TITLE "Heavy Metal Syndicate #1156"
FILE "2013-04-07.mp3" WAVE
  TRACK 01 AUDIO
    TITLE "HELL TO PAY"
    PERFORMER "DEEP PURPLE : Now What?!"
    INDEX 01 00:00:00

  TRACK 02 AUDIO
    TITLE "LIGHTS OUT (John Peel Session 1977)"
    PERFORMER "UFO : On Air - At the BBC 1974-1985"
    INDEX 01 11:08:32

  TRACK 03 AUDIO
    TITLE "D-BLOCK"
    PERFORMER "VICIOUS RUMORS : Electric Punishment"
    INDEX 01 16:31:61

  TRACK 04 AUDIO
    TITLE "LOVE WITHOUT TEARS"
    PERFORMER "HIM : Tears on Tape"
    INDEX 01 20:22:60

  TRACK 05 AUDIO
    TITLE "CLOSE MY EYES FOREVER"
    PERFORMER "DEVICE : Device (feat. Lzzy Hale)"
    INDEX 01 26:34:41

  TRACK 06 AUDIO
    TITLE "BROKEN WINGS"
    PERFORMER "JESSICA WOLFF : Renegade"
    INDEX 01 32:32:38

  TRACK 07 AUDIO
    TITLE "Introduction: TRUTH HITS EVERYBODY"
    PERFORMER "POLICE : Outlandos d'Amour (Digitally remastered)"
    INDEX 01 48:02:57

  TRACK 08 AUDIO
    TITLE "Classic rock: TRUTH HITS EVERYBODY"
    PERFORMER "ROYAL PHILHARMONIC ORCHESTRA & FRIENDS : Arrested - The Music of the Police"
    INDEX 01 51:52:10


SEO [PR] おまとめローン 冷え性対策 坂本龍馬 動画掲示板 レンタルサーバー SEO