[ オンエアリストに戻る ]
TITLE "Heavy Metal Syndicate #1155"
FILE "2013-03-31.mp3" WAVE
  TRACK 01 AUDIO
    TITLE "MASTER OF CONFUSION"
    PERFORMER "GAMMA RAY : Master of Confusion (EP)"
    INDEX 01 00:00:00

  TRACK 02 AUDIO
    TITLE "HIT AND RUN"
    PERFORMER "FAIR WARNING : Sundancer"
    INDEX 01 15:52:01

  TRACK 03 AUDIO
    TITLE "'TILL YOU DIE"
    PERFORMER "BURNING RAIN : Epic Obsession"
    INDEX 01 20:41:04

  TRACK 04 AUDIO
    TITLE "THE OTHER SIDE"
    PERFORMER "WINERY DOGS : The Winery Dogs"
    INDEX 01 24:52:52

  TRACK 05 AUDIO
    TITLE "JIGOLO HAR MEGIDDO"
    PERFORMER "GHOST B.C. : Infestissumam"
    INDEX 01 31:16:14

  TRACK 06 AUDIO
    TITLE "Introduction: HE'S A WHORE"
    PERFORMER "CHEAP TRICK : Cheap Trick (Digitally remastered)"
    INDEX 01 48:27:69

  TRACK 07 AUDIO
    TITLE "Classic rock: HE'S A WHORE"
    PERFORMER "VINCE NEIL : Tattoos & Tequila"
    INDEX 01 52:37:47


SEO [PR] おまとめローン 冷え性対策 坂本龍馬 動画掲示板 レンタルサーバー SEO