[ オンエアリストに戻る ]
TITLE "Heavy Metal Syndicate #1154"
FILE "2013-03-24.mp3" WAVE
  TRACK 01 AUDIO
    TITLE "CONFESSION / THE ICEMAN"
    PERFORMER "PRETTY MAIDS : Motherland"
    INDEX 01 00:00:00

  TRACK 02 AUDIO
    TITLE "COOL"
    PERFORMER "FAIR WARNING : Sundancer"
    INDEX 01 16:18:41

  TRACK 03 AUDIO
    TITLE "SWEET LITTLE BABY THING"
    PERFORMER "BURNING RAIN : Epic Obsession"
    INDEX 01 22:20:63

  TRACK 04 AUDIO
    TITLE "I WILL BE THE END OF YOU"
    PERFORMER "HIM : Tears on Tape"
    INDEX 01 26:39:17

  TRACK 05 AUDIO
    TITLE "THE WANDERER"
    PERFORMER "AMORPHIS : Circle"
    INDEX 01 31:43:33

  TRACK 06 AUDIO
    TITLE "Introduction: BORN TO BE WILD"
    PERFORMER "STEPPENWOLF : Steppenwolf"
    INDEX 01 47:10:64

  TRACK 07 AUDIO
    TITLE "Classic rock: BORN TO BE WILD"
    PERFORMER "RAVEN with UDO DIRKSCHNEIDER : Break the Chain (EP)"
    INDEX 01 51:34:06


SEO [PR] おまとめローン 冷え性対策 坂本龍馬 動画掲示板 レンタルサーバー SEO