[ オンエアリストに戻る ]
TITLE "Heavy Metal Syndicate #1153"
FILE "2013-03-17.mp3" WAVE
  TRACK 01 AUDIO
    TITLE "INVOKE THE MACHINE"
    PERFORMER "TOBIAS SAMMET'S AVANTASIA : The Mystery of Time (feat. Ronnie Atkins)"
    INDEX 01 00:00:00

  TRACK 02 AUDIO
    TITLE "DESIRE"
    PERFORMER "WINERY DOGS : The Winery Dogs"
    INDEX 01 15:22:37

  TRACK 03 AUDIO
    TITLE "REDEMPTION BLUES"
    PERFORMER "AUDREY HORNE : Youngblood"
    INDEX 01 21:28:53

  TRACK 04 AUDIO
    TITLE "VILIFY"
    PERFORMER "DEVICE : Device"
    INDEX 01 27:35:21

  TRACK 05 AUDIO
    TITLE "VENUS AND MARS / ROCK SHOW (Live 2012)"
    PERFORMER "TIM CHRISTENSEN, MIKE VIOLA and TRACY BONHAM with THE DAMN CRYSTALS : Pure McCartney"
    INDEX 01 34:21:36

  TRACK 06 AUDIO
    TITLE "Introduction: HELP!"
    PERFORMER "BEATLES : Help! (Digitally remastered)"
    INDEX 01 45:12:65

  TRACK 07 AUDIO
    TITLE "Classic rock: HELP"
    PERFORMER "DEEP PURPLE : Shades of Deep Purple (Digitally remastered)"
    INDEX 01 49:12:73


SEO [PR] おまとめローン 冷え性対策 坂本龍馬 動画掲示板 レンタルサーバー SEO