[ オンエアリストに戻る ]
TITLE "Heavy Metal Syndicate #1152"
FILE "2013-03-10.mp3" WAVE
  TRACK 01 AUDIO
    TITLE "ELEVATE"
    PERFORMER "WINERY DOGS : The Winery Dogs"
    INDEX 01 00:00:00

  TRACK 02 AUDIO
    TITLE "WHERE CLOCK HANDS FREEZE"
    PERFORMER "TOBIAS SAMMET'S AVANTASIA : The Mystery of Time (feat. Michael Kiske)"
    INDEX 01 16:11:34

  TRACK 03 AUDIO
    TITLE "WISE AS A SERPENT"
    PERFORMER "SPIRITUAL BEGGARS : Earth Blues"
    INDEX 01 22:51:72

  TRACK 04 AUDIO
    TITLE "DO ME A FAVOR"
    PERFORMER "STONE SOUR : House of Gold & Bones part 2"
    INDEX 01 27:34:53

  TRACK 05 AUDIO
    TITLE "Introduction: TIE YOUR MOTHER DOWN"
    PERFORMER "QUEEN : A Day at the Races (Digitally remastered)"
    INDEX 01 47:13:38

  TRACK 06 AUDIO
    TITLE "Classic rock: TIE YOUR MOTHER DOWN"
    PERFORMER "LEMMY KILMISTER, TED NUGENT, BOB KULICK, RUDY SARZO, TOMMY ALDRIDGE"
    Dragon Attack - A Tribute to Queen (Compilation)
    INDEX 01 52:04:60


SEO [PR] おまとめローン 冷え性対策 坂本龍馬 動画掲示板 レンタルサーバー SEO