[ オンエアリストに戻る ]
TITLE "Heavy Metal Syndicate #1151"
FILE "2013-03-03.mp3" WAVE
  TRACK 01 AUDIO
    TITLE "Classic rock: TRAMPLED UNDER FOOT"
    PERFORMER "LED ZEPPELIN : Physical Graffiti (Digitally remastered)"
    INDEX 01 00:00:00

  TRACK 02 AUDIO
    TITLE "PORTRAIT OF RED"
    PERFORMER "VIRGINMARYS : King of Conflict"
    INDEX 01 19:47:34

  TRACK 03 AUDIO
    TITLE "18 & LIFE (Live at Nokia, Los Angeles CA, Aug 2nd 2012)"
    PERFORMER "SEBASTIAN BACH : ABachalypse Now"
    INDEX 01 25:29:36

  TRACK 04 AUDIO
    TITLE "YOUTH GONE WILD (Live at Nokia, Los Angeles CA, Aug 2nd 2012)"
    PERFORMER "SEBASTIAN BACH : ABachalypse Now"
    INDEX 01 30:09:51

  TRACK 05 AUDIO
    TITLE "SECULAR HAZE"
    PERFORMER "GHOST B.C. : Infestissumam"
    INDEX 01 37:43:53

  TRACK 06 AUDIO
    TITLE "Introduction: LET'S SPEND THE NIGHT TOGETHER"
    PERFORMER "ROLLING STONES : Between the Buttons (US edition) (Digitally remastered)"
    INDEX 01 46:21:29

  TRACK 07 AUDIO
    TITLE "Classic rock: LET'S SPEND THE NIGHT TOGETHER"
    PERFORMER "KEEL : Lay Down the Law (Digitally remastered)"
    INDEX 01 50:06:26


SEO [PR] おまとめローン 冷え性対策 坂本龍馬 動画掲示板 レンタルサーバー SEO