[ オンエアリストに戻る ]
TITLE "Heavy Metal Syndicate #1150"
FILE "2013-02-24.mp3" WAVE
  TRACK 01 AUDIO
    TITLE "WHAT ABOUT NOW"
    PERFORMER "BON JOVI : What About Now"
    INDEX 01 00:00:00

  TRACK 02 AUDIO
    TITLE "PIECE OF ME (Live at Hellfest, France, June 16th 2012)"
    PERFORMER "SEBASTIAN BACH : ABachalypse Now"
    INDEX 01 15:20:20

  TRACK 03 AUDIO
    TITLE "POLICHINELLE"
    PERFORMER "THERION : Les Fleurs du Mal"
    INDEX 01 21:59:70

  TRACK 04 AUDIO
    TITLE "JUST A RIDE"
    PERFORMER "VIRGINMARYS : King of Conflict"
    INDEX 01 24:56:51

  TRACK 05 AUDIO
    TITLE "BAND ON THE RUN (Live 2012)"
    PERFORMER "TIM CHRISTENSEN, MIKE VIOLA and TRACY BONHAM with THE DAMN CRYSTALS : Pure McCartney"
    INDEX 01 31:05:66

  TRACK 06 AUDIO
    TITLE "Introduction: JAILHOUSE ROCK"
    PERFORMER "ELVIS PRESLEY : Jailhouse Rock (EP)"
    INDEX 01 44:27:31

  TRACK 07 AUDIO
    TITLE "Introduction: JAILHOUSE ROCK"
    PERFORMER "JEFF BECK GROUP : Beck-Ola"
    INDEX 01 46:38:46

  TRACK 08 AUDIO
    TITLE "Classic rock: JAILHOUSE ROCK (Live)"
    PERFORMER "MOTLEY CRUE : Girls, Girls, Girls"
    INDEX 01 49:58:15


SEO [PR] おまとめローン 冷え性対策 坂本龍馬 動画掲示板 レンタルサーバー SEO