[ オンエアリストに戻る ]
TITLE "Heavy Metal Syndicate #1149"
FILE "2013-02-17.mp3" WAVE
  TRACK 01 AUDIO
    TITLE "DOCTOR DOCTOR (Live 2012)"
    PERFORMER "MICHAEL SCHENKER : Temple of Rock - Live in Europe"
    INDEX 01 00:00:00

  TRACK 02 AUDIO
    TITLE "LEECH"
    PERFORMER "SOILWORK : The Living Infinite"
    INDEX 01 14:18:74

  TRACK 03 AUDIO
    TITLE "BECAUSE OF YOU"
    PERFORMER "HARDCORE SUPERSTAR : C'mon Take on Me"
    INDEX 01 19:21:57

  TRACK 04 AUDIO
    TITLE "OUT OF MIND"
    PERFORMER "VIRGINMARYS : King of Conflict"
    INDEX 01 23:00:54

  TRACK 05 AUDIO
    TITLE "JE N'AI BESOIN QUE DE TENDRESSE"
    PERFORMER "THERION : Les Fleurs du Mal"
    INDEX 01 29:15:22

  TRACK 06 AUDIO
    TITLE "Introduction: IN THE HALL OF THE MOUNTAIN KING"
    PERFORMER "GOTHENBURG SYMPHONY ORCHESTRA - NEEME JÄRVI : Edvard Grieg: Peer Gynt - Sigurd Jorsalfar"
    INDEX 01 43:04:40

  TRACK 07 AUDIO
    TITLE "Introduction: MORNING MOOD"
    PERFORMER "GOTHENBURG SYMPHONY ORCHESTRA - NEEME JÄRVI : Edvard Grieg: Peer Gynt - Sigurd Jorsalfar"
    INDEX 01 47:38:25

  TRACK 08 AUDIO
    TITLE "Classic rock: HALL OF THE MOUNTAIN KING"
    PERFORMER "RITCHIE BLACKMORE'S RAINBOW : Stranger in Us All"
    INDEX 01 48:46:60


SEO [PR] おまとめローン 冷え性対策 坂本龍馬 動画掲示板 レンタルサーバー SEO