[ オンエアリストに戻る ]
TITLE "Heavy Metal Syndicate #1148"
FILE "2013-02-10.mp3" WAVE
  TRACK 01 AUDIO
    TITLE "IN DUE TIME"
    PERFORMER "KILLSWITCH ENGAGE : Disarm the Descent"
    INDEX 01 00:00:00

  TRACK 02 AUDIO
    TITLE "ABANDON"
    PERFORMER "STRATOVARIUS : Nemesis"
    INDEX 01 13:56:50

  TRACK 03 AUDIO
    TITLE "DEAD MAN'S SHOES"
    PERFORMER "VIRGINMARYS : King of Conflict"
    INDEX 01 20:31:25

  TRACK 04 AUDIO
    TITLE "BLACKBIRD"
    PERFORMER "TIM CHRISTENSEN : The EP Series - Volume 1: Acoustic Covers"
    INDEX 01 24:47:59

  TRACK 05 AUDIO
    TITLE "ASSAULT ATTACK (Live 2012)"
    PERFORMER "MICHAEL SCHENKER : Temple of Rock - Live in Europe"
    INDEX 01 29:53:55

  TRACK 06 AUDIO
    TITLE "Introduction: POUPEE DE CIRE, POUPEE DE SON"
    PERFORMER "FRANCE GALL : Poupee de cire, poupee de son (single)"
    INDEX 01 46:47:31

  TRACK 07 AUDIO
    TITLE "Introduction: POUPEE DE CIRE, POUPEE DE SON (japanese version)"
    PERFORMER "FRANCE GALL : 夢みるシャンソン人形/ドナ・ドナ・ドーナ (フランス語盤/日本語盤) (EP)"
    INDEX 01 49:22:43

  TRACK 08 AUDIO
    TITLE "POUPÉE DE CIRE, POUPÉE DE SON"
    PERFORMER "THERION : Les Fleurs du Mal"
    INDEX 01 52:30:28


SEO [PR] おまとめローン 冷え性対策 坂本龍馬 動画掲示板 レンタルサーバー SEO