[ オンエアリストに戻る ]
TITLE "Heavy Metal Syndicate #1147"
FILE "2013-02-03.mp3" WAVE
  TRACK 01 AUDIO
    TITLE "NOTHING LEFT BUT TEARS"
    PERFORMER "BUCKCHERRY : Confessions"
    INDEX 01 00:00:00

  TRACK 02 AUDIO
    TITLE "BLACKOUT (Live 2012)"
    PERFORMER "MICHAEL SCHENKER : Temple of Rock - Live in Europe"
    INDEX 01 13:30:01

  TRACK 03 AUDIO
    TITLE "ONE MORE MINUTE"
    PERFORMER "HARDCORE SUPERSTAR : C'mon Take on Me"
    INDEX 01 18:12:18

  TRACK 04 AUDIO
    TITLE "THE PERFECT CRIME"
    PERFORMER "UNION : The World Is Yours"
    INDEX 01 23:07:16

  TRACK 05 AUDIO
    TITLE "TONGUE"
    PERFORMER "SOILWORK : The Living Infinite"
    INDEX 01 28:17:33

  TRACK 06 AUDIO
    TITLE "Reissue: RUN FOR THE NIGHT"
    PERFORMER "BLIND GUARDIAN : A Traveler's Guide to Space and Time / Battalions of Fear (Digitally remastered)"
    INDEX 01 33:08:57

  TRACK 07 AUDIO
    TITLE "Introduction: DAY TRIPPER"
    PERFORMER "BEATLES : Day Tripper (single) (Digitally remastered)"
    INDEX 01 47:08:46

  TRACK 08 AUDIO
    TITLE "Classic rock: DAY TRIPPER"
    PERFORMER "WHITESNAKE : Trouble (Digitally remastered)"
    INDEX 01 52:19:35


SEO [PR] おまとめローン 冷え性対策 坂本龍馬 動画掲示板 レンタルサーバー SEO