[ オンエアリストに戻る ]
TITLE "Heavy Metal Syndicate #1146"
FILE "2013-01-27.mp3" WAVE
  TRACK 01 AUDIO
    TITLE "ARMED AND READY (Live 2012)"
    PERFORMER "MICHAEL SCHENKER : Temple of Rock - Live in Europe"
    INDEX 01 00:00:00

  TRACK 02 AUDIO
    TITLE "THIS MOMENTARY BLISS"
    PERFORMER "SOILWORK : The Living Infinite"
    INDEX 01 18:18:12

  TRACK 03 AUDIO
    TITLE "SHOT IN THE DARK"
    PERFORMER "TIM CHRISTENSEN : The EP Series - Volume 1: Acoustic Covers"
    INDEX 01 25:58:14

  TRACK 04 AUDIO
    TITLE "FIGHT IT BACK"
    PERFORMER "IMPERIAL STATE ELECTRIC : Radio Electric"
    INDEX 01 28:36:31

  TRACK 05 AUDIO
    TITLE "APOCRYPHON"
    PERFORMER "SWORD : Apocryphon"
    INDEX 01 34:37:24

  TRACK 06 AUDIO
    TITLE "Introduction: GEORGES BIZET: FARANDOLE - From L'Arlésienne Suite No. 2"
    PERFORMER "CLEVELAND ORCHESTRA conducted by LORIN MAAZEL : Direct from Cleveland"
    INDEX 01 47:50:27

  TRACK 07 AUDIO
    TITLE "Classic rock: THE FARANDOLE (Live 1983)"
    PERFORMER "TALAS : Live Speed on Ice"
    INDEX 01 51:59:13


SEO [PR] おまとめローン 冷え性対策 坂本龍馬 動画掲示板 レンタルサーバー SEO