[ オンエアリストに戻る ]
TITLE "Heavy Metal Syndicate #1145"
FILE "2013-01-20.mp3" WAVE
  TRACK 01 AUDIO
    TITLE "UNBREAKABLE"
    PERFORMER "STRATOVARIUS : Nemesis"
    INDEX 01 00:00:00

  TRACK 02 AUDIO
    TITLE "TONIGHT I'M ALIVE"
    PERFORMER "UNION : The World Is Yours"
    INDEX 01 13:41:24

  TRACK 03 AUDIO
    TITLE "EXECRATOR"
    PERFORMER "SWORD : Apocryphon"
    INDEX 01 19:30:23

  TRACK 04 AUDIO
    TITLE "SPECTRUM OF ETERNITY"
    PERFORMER "SOILWORK : The Living Infinite"
    INDEX 01 23:10:41

  TRACK 05 AUDIO
    TITLE "IT'S MY LIFE (Live 2012)"
    PERFORMER "BON JOVI : 12-12-12 - The Concert for Sandy Relief"
    INDEX 01 33:00:10

  TRACK 06 AUDIO
    TITLE "Introduction: GERALDINE"
    PERFORMER "BOOTS WALKER : Geraldine (single)"
    INDEX 01 44:09:37

  TRACK 07 AUDIO
    TITLE "Classic rock: GERALDINE"
    PERFORMER "LOUDNESS : Geraldine (single)"
    INDEX 01 51:17:70


SEO [PR] おまとめローン 冷え性対策 坂本龍馬 動画掲示板 レンタルサーバー SEO