[ オンエアリストに戻る ]
TITLE "Heavy Metal Syndicate #1144"
FILE "2013-01-13.mp3" WAVE
  TRACK 01 AUDIO
    TITLE "EXORDIUM / I AM BULLETPROOF"
    PERFORMER "BLACK VEIL BRIDES : Wretched and Divine - The Story of the Wild Ones"
    INDEX 01 00:00:00

  TRACK 02 AUDIO
    TITLE "BECAUSE WE CAN"
    PERFORMER "BON JOVI : Because We Can (single)"
    INDEX 01 10:40:57

  TRACK 03 AUDIO
    TITLE "STAND UP"
    PERFORMER "SNAKECHARMER : Snakecharmer"
    INDEX 01 16:32:45

  TRACK 04 AUDIO
    TITLE "BURNING SUN (Hammond version - Dedicated to Jon Lord)"
    PERFORMER "HELLOWEEN : Straight Out of Hell (Limited edition)"
    INDEX 01 22:00:52

  TRACK 05 AUDIO
    TITLE "YOU DON'T WANT TO KNOW"
    PERFORMER "IMPERIAL STATE ELECTRIC : Radio Electric"
    INDEX 01 29:28:02

  TRACK 06 AUDIO
    TITLE "Introduction: ELEANOR RIGBY"
    PERFORMER "BEATLES : Revolver (Digitally remastered)"
    INDEX 01 46:17:68

  TRACK 07 AUDIO
    TITLE "Classic rock: ELEANOR RIGBY"
    PERFORMER "ETHEL THE FROG : Ethel the Frog"
    INDEX 01 50:06:26


SEO [PR] おまとめローン 冷え性対策 坂本龍馬 動画掲示板 レンタルサーバー SEO