[ オンエアリストに戻る ]
TITLE "Heavy Metal Syndicate #1143 - 好き勝手にかける"
FILE "2013-01-06.mp3" WAVE
  TRACK 01 AUDIO
    TITLE "Introduction: 春の海"
    PERFORMER "箏:宮城道雄 尺八:吉田晴風 : 春の海 (single)"
    INDEX 01 00:00:00

  TRACK 02 AUDIO
    TITLE "Request: NOT FAKIN' IT"
    PERFORMER "MICHAEL MONROE : Not Fakin' It"
    INDEX 01 05:03:16

  TRACK 03 AUDIO
    TITLE "Request: I MIGHT LIE"
    PERFORMER "ANDY TAYLOR : Thunder"
    INDEX 01 08:34:68

  TRACK 04 AUDIO
    TITLE "Request: ELENORE"
    PERFORMER "TURTLES : The Turtles Present The Battle of the Bands"
    INDEX 01 17:43:22

  TRACK 05 AUDIO
    TITLE "Request: RENEGADE"
    PERFORMER "DAUGHTRY : Break the Spell"
    INDEX 01 20:12:20

  TRACK 06 AUDIO
    TITLE "Request: THUNDERSTRUCK"
    PERFORMER "AC/DC : The Razors Edge"
    INDEX 01 25:13:59

  TRACK 07 AUDIO
    TITLE "Request: SLAUGHTER ON TENTH AVENUE"
    PERFORMER "VENTURES : Knock Me Out!"
    INDEX 01 33:40:70

  TRACK 08 AUDIO
    TITLE "Request: PINBALL WIZARD"
    PERFORMER "WHO : Tommy"
    INDEX 01 39:37:08

  TRACK 09 AUDIO
    TITLE "Request: PHOTOGRAPH"
    PERFORMER "SANTANA : Guitar Heaven: The Greatest Guitar Classics of All Time (featuring Chris Daughtry)"
    INDEX 01 42:35:56

  TRACK 10 AUDIO
    TITLE "Request: THANK YOU"
    PERFORMER "LED ZEPPELIN : Led Zeppelin II"
    INDEX 01 51:02:39


SEO [PR] おまとめローン 冷え性対策 坂本龍馬 動画掲示板 レンタルサーバー SEO