[ オンエアリストに戻る ]
TITLE "Heavy Metal Syndicate #1142"
FILE "2012-12-30.mp3" WAVE
  TRACK 01 AUDIO
    TITLE "WRECK MY SCENE"
    PERFORMER "UNION : The World Is Yours"
    INDEX 01 00:00:00

  TRACK 02 AUDIO
    TITLE "WASTED YEARS"
    PERFORMER "PINK CREAM 69 : Ceremonial"
    INDEX 01 09:18:30

  TRACK 03 AUDIO
    TITLE "SILENCE THE SCREAM"
    PERFORMER "HOLY GRAIL : Ride the Void"
    INDEX 01 14:56:67

  TRACK 04 AUDIO
    TITLE "YEARS"
    PERFORMER "HELLOWEEN : Straight Out of Hell"
    INDEX 01 20:33:31

  TRACK 05 AUDIO
    TITLE "KLUSKAP O'KOM"
    PERFORMER "VOIVOD : Target Earth"
    INDEX 01 26:53:39

  TRACK 06 AUDIO
    TITLE "ROCK SCIENCE"
    PERFORMER "IMPERIAL STATE ELECTRIC : Radio Electric"
    INDEX 01 33:09:01

  TRACK 07 AUDIO
    TITLE "MAGGIE MAY"
    PERFORMER "IMPERIAL STATE ELECTRIC : Radio Electric"
    INDEX 01 37:29:47

  TRACK 08 AUDIO
    TITLE "HM SYNDICATE ADDRESS (2013 version)"
    PERFORMER "田川ヒロアキ"
    INDEX 01 43:56:42

  TRACK 09 AUDIO
    TITLE "Classic rock: BACH ONTO THIS"
    PERFORMER "JON LORD : Before I Forget"
    INDEX 01 46:54:48


SEO [PR] おまとめローン 冷え性対策 坂本龍馬 動画掲示板 レンタルサーバー SEO