[ オンエアリストに戻る ]
TITLE "Heavy Metal Syndicate #1141 - クリスマス特集"
FILE "2012-12-23.mp3" WAVE
  TRACK 01 AUDIO
    TITLE "STRAIGHT OUT OF HELL"
    PERFORMER "HELLOWEEN : Straight Out of Hell"
    INDEX 01 00:00:00

  TRACK 02 AUDIO
    TITLE "Classic rock: A MERRY JINGLE"
    PERFORMER "PRETTY MAIDS : In Santa's Claws (Featuring Ian Gillan) (EP)"
    INDEX 01 16:39:63

  TRACK 03 AUDIO
    TITLE "Classic rock: WHITE CHRISTMAS"
    PERFORMER "QUEENSRYCHE : Monster Ballads XMas (Compilation)"
    INDEX 01 19:10:36

  TRACK 04 AUDIO
    TITLE "Classic rock: PLEASE COME HOME FOR CHRISTMAS"
    PERFORMER "JON BON JOVI : A Very Special Christmas 2 (Compilation)"
    INDEX 01 21:24:74

  TRACK 05 AUDIO
    TITLE "Classic rock: CHRISTMAS EVE"
    PERFORMER "BLACKMORE'S NIGHT : Winter Carols"
    INDEX 01 30:14:39

  TRACK 06 AUDIO
    TITLE "Classic rock: SANTA CLAWS IS COMING TO TOWN"
    PERFORMER "ALICE COOPER, JOHN 5, BILLY SHEEHAN, VINNY APPICE"
    We Wish You a Metal Xmas and a Headbanging New Year (Compilation)
    INDEX 01 34:19:11

  TRACK 07 AUDIO
    TITLE "Message from Steve Vai"
    INDEX 01 38:11:22

  TRACK 08 AUDIO
    TITLE "Classic rock: CHRISTMAS TIME IS HERE"
    PERFORMER "STEVE VAI : Merry Axemas - A Guitar Christmas (Compilation)"
    INDEX 01 38:17:39

  TRACK 09 AUDIO
    TITLE "Classic rock: HAPPY XMAS (WAR IS OVER) / GIVE PEACE A CHANCE (Reprise)"
    PERFORMER "JOHN LENNON : Shaved Fish (Digitally remastered)"
    INDEX 01 49:56:35


SEO [PR] おまとめローン 冷え性対策 坂本龍馬 動画掲示板 レンタルサーバー SEO