[ オンエアリストに戻る ]
TITLE "Heavy Metal Syndicate #1140"
FILE "2012-12-16.mp3" WAVE
  TRACK 01 AUDIO
    TITLE "GLUTTONY"
    PERFORMER "BUCKCHERRY : Gluttony (download single)"
    INDEX 01 00:00:00

  TRACK 02 AUDIO
    TITLE "FREE RIDE"
    PERFORMER "BILL LEVERTY : Free Ride (download single)"
    INDEX 01 14:02:26

  TRACK 03 AUDIO
    TITLE "PURPLE SKY"
    PERFORMER "LANCER : Lancer"
    INDEX 01 19:31:15

  TRACK 04 AUDIO
    TITLE "LOVER'S END PT.I (Alternate cut version)"
    PERFORMER "MOON SAFARI : The Lover's End Trilogy (EP)"
    INDEX 01 25:35:30

  TRACK 05 AUDIO
    TITLE "BURY ME AN ANGEL (Live 2012)"
    PERFORMER "ARCH ENEMY : Astro Khaos 2012 - Official Live Bootleg"
    INDEX 01 30:35:62

  TRACK 06 AUDIO
    TITLE "Introduction: AMERICA"
    PERFORMER "RITA MORENO, GEORGE CHAKIRIS, THE SHARKS AND GIRLS : West Side Story (Soundtrack)"
    INDEX 01 43:19:66

  TRACK 07 AUDIO
    TITLE "Classic rock: AMERICA (from West Side Story)"
    PERFORMER "NICE : America (single) (Digitally remastered)"
    INDEX 01 46:48:28


SEO [PR] おまとめローン 冷え性対策 坂本龍馬 動画掲示板 レンタルサーバー SEO