[ オンエアリストに戻る ]
TITLE "Heavy Metal Syndicate #1139"
FILE "2012-12-09.mp3" WAVE
  TRACK 01 AUDIO
    TITLE "TEMPER TEMPER"
    PERFORMER "BULLET FOR MY VALENTINE : Temper Temper"
    INDEX 01 00:00:00

  TRACK 02 AUDIO
    TITLE "KEEP ON SWINGING"
    PERFORMER "RIVAL SONS : Head Down"
    INDEX 01 09:32:21

  TRACK 03 AUDIO
    TITLE "FUTURE WORLD (Live 2011)"
    PERFORMER "GAMMA RAY : Skeletons & Majesties Live (feat. Michael Kiske)"
    INDEX 01 15:20:45

  TRACK 04 AUDIO
    TITLE "IT'S MAGIC"
    PERFORMER "LAST AUTUMN'S DREAM : Ten Tangerine Tales"
    INDEX 01 27:00:34

  TRACK 05 AUDIO
    TITLE "I'M NOT IN LOVE"
    PERFORMER "NEKTAR : A Spoonful of Time"
    INDEX 01 34:08:38

  TRACK 06 AUDIO
    TITLE "Introduction: VACATION"
    PERFORMER "CONNIE FRANCIS : Vacation (single)"
    INDEX 01 47:16:25

  TRACK 07 AUDIO
    TITLE "Introduction: VACATION (日本語)"
    PERFORMER "CONNIE FRANCIS : Vacation (日本語) (single)"
    INDEX 01 48:58:73

  TRACK 08 AUDIO
    TITLE "Classic rock: V.A.C.A.T.I.O.N. (IN THE SUMMER SUN)"
    PERFORMER "SLOPPY SECONDS : More Trouble Than They're Worth"
    INDEX 01 52:00:27


SEO [PR] おまとめローン 冷え性対策 坂本龍馬 動画掲示板 レンタルサーバー SEO