[ オンエアリストに戻る ]
TITLE "Heavy Metal Syndicate #1138"
FILE "2012-12-02.mp3" WAVE
  TRACK 01 AUDIO
    TITLE "MEN, MARTIANS AND MACHINES (Live 2011)"
    PERFORMER "GAMMA RAY : Skeletons & Majesties Live"
    INDEX 01 00:00:00

  TRACK 02 AUDIO
    TITLE "PICKIN' UP THE PIECES"
    PERFORMER "LAST AUTUMN'S DREAM : Ten Tangerine Tales"
    INDEX 01 15:33:47

  TRACK 03 AUDIO
    TITLE "LIFE UNDERGROUND"
    PERFORMER "AMITY AFFLICTION : Chasing Ghosts"
    INDEX 01 21:29:42

  TRACK 04 AUDIO
    TITLE "NEMESIS (Live 2012)"
    PERFORMER "ARCH ENEMY : Astro Khaos 2012 - Official Live Bootleg"
    INDEX 01 25:30:74

  TRACK 05 AUDIO
    TITLE "MIND CONTROL"
    PERFORMER "T&N : Slave to the Empire"
    INDEX 01 31:06:63

  TRACK 06 AUDIO
    TITLE "Introduction: SINCE YOU BEEN GONE"
    PERFORMER "RUSS BALLARD : Winning (Digitally remastered)"
    INDEX 01 37:57:18

  TRACK 07 AUDIO
    TITLE "Introduction: SINCE YOU BEEN GONE"
    PERFORMER "RAINBOW : Down to Earth (Digitally remastered)"
    INDEX 01 40:52:51

  TRACK 08 AUDIO
    TITLE "Classic rock: SINCE YOU BEEN GONE"
    PERFORMER "HEAD EAST : Head East"
    INDEX 01 44:52:60


SEO [PR] おまとめローン 冷え性対策 坂本龍馬 動画掲示板 レンタルサーバー SEO