[ オンエアリストに戻る ]
TITLE "Heavy Metal Syndicate #1137"
FILE "2012-11-25.mp3" WAVE
  TRACK 01 AUDIO
    TITLE "FAR FROM THE STARS"
    PERFORMER "HELLOWEEN : Straight Out of Hell"
    INDEX 01 00:00:00

  TRACK 02 AUDIO
    TITLE "SPELLBOUND"
    PERFORMER "YNGWIE J. MALMSTEEN'S RISING FORCE : Spellbound"
    INDEX 01 15:01:25

  TRACK 03 AUDIO
    TITLE "UNTIL THE SUN COMES"
    PERFORMER "RIVAL SONS : Head Down"
    INDEX 01 21:18:65

  TRACK 04 AUDIO
    TITLE "CYANIDE"
    PERFORMER "DESTRUCTION : Spiritual Genocide"
    INDEX 01 26:10:45

  TRACK 05 AUDIO
    TITLE "CHASING GHOSTS"
    PERFORMER "AMITY AFFLICTION : Chasing Ghosts"
    INDEX 01 31:36:32

  TRACK 06 AUDIO
    TITLE "DEAD EYES SEE NO FUTURE (Live 2012)"
    PERFORMER "ARCH ENEMY : Astro Khaos 2012 - Official Live Bootleg"
    INDEX 01 36:01:49

  TRACK 07 AUDIO
    TITLE "Introduction: SHAPES OF THINGS"
    PERFORMER "YARDBIRDS : Shapes of Things (single)"
    INDEX 01 46:29:39

  TRACK 08 AUDIO
    TITLE "Classic rock: SHAPES OF THINGS"
    PERFORMER "GARY MOORE : Victims of the Future (Digitally remastered)"
    INDEX 01 50:30:01


SEO [PR] おまとめローン 冷え性対策 坂本龍馬 動画掲示板 レンタルサーバー SEO