[ オンエアリストに戻る ]
TITLE "Heavy Metal Syndicate #1136"
FILE "2012-11-18.mp3" WAVE
  TRACK 01 AUDIO
    TITLE "POISONED MINDS"
    PERFORMER "YNGWIE J. MALMSTEEN'S RISING FORCE : Spellbound"
    INDEX 01 00:00:00

  TRACK 02 AUDIO
    TITLE "YOU WANT TO"
    PERFORMER "RIVAL SONS : Head Down"
    INDEX 01 15:04:54

  TRACK 03 AUDIO
    TITLE "THE BLOOD, THE SWEAT, THE TEARS (Live 2011)"
    PERFORMER "MACHINE HEAD : Machine Fucking Head Live"
    INDEX 01 21:50:64

  TRACK 04 AUDIO
    TITLE "FOREVER (Live 2011)"
    PERFORMER "Y&T : Live at the Mystic"
    INDEX 01 26:36:69

  TRACK 05 AUDIO
    TITLE "GOLD HALO"
    PERFORMER "DATSUNS : Death Rattle Boogie"
    INDEX 01 34:15:09

  TRACK 06 AUDIO
    TITLE "Introduction: YOU CAN'T DO THAT"
    PERFORMER "BEATLES : A Hard Day's Night (Digitally remastered)"
    INDEX 01 48:33:31

  TRACK 07 AUDIO
    TITLE "Classic rock: YOU CAN'T DO THAT (Live 2003)"
    PERFORMER "YELLOW MATTER CUSTARD : One Night in New York City"
    INDEX 01 53:18:51


SEO [PR] おまとめローン 冷え性対策 坂本龍馬 動画掲示板 レンタルサーバー SEO