[ オンエアリストに戻る ]
TITLE "Heavy Metal Syndicate #1135"
FILE "2012-11-11.mp3" WAVE
  TRACK 01 AUDIO
    TITLE "ROCK AND ROLL (Live 2007)"
    PERFORMER "LED ZEPPELIN : Celebration Day"
    INDEX 01 00:00:00

  TRACK 02 AUDIO
    TITLE "T.N.T. (Live 2009)"
    PERFORMER "AC/DC : Live at River Plate"
    INDEX 01 15:47:73

  TRACK 03 AUDIO
    TITLE "HEART OF STEEL"
    PERFORMER "GENE THE WEREWOLF : Rock n' Roll Animal"
    INDEX 01 21:21:49

  TRACK 04 AUDIO
    TITLE "GODS ARE BORED"
    PERFORMER "DATSUNS : Death Rattle Boogie"
    INDEX 01 26:19:20

  TRACK 05 AUDIO
    TITLE "BODEN"
    PERFORMER "CRYPTOPSY : The Best of Us Bleed"
    INDEX 01 32:52:49

  TRACK 06 AUDIO
    TITLE "Introduction: WELCOME TO THE MACHINE"
    PERFORMER "PINK FLOYD : Wish You Were Here (Digitally remastered)"
    INDEX 01 46:55:51

  TRACK 07 AUDIO
    TITLE "Classic rock: WELCOME TO THE MACHINE"
    PERFORMER "QUEENSRYCHE : Take Cover"
    INDEX 01 52:08:10


SEO [PR] おまとめローン 冷え性対策 坂本龍馬 動画掲示板 レンタルサーバー SEO