[ オンエアリストに戻る ]
TITLE "Heavy Metal Syndicate #1134"
FILE "2012-11-04.mp3" WAVE
  TRACK 01 AUDIO
    TITLE "OH YEAH"
    PERFORMER "AEROSMITH : Music from Another Dimension!"
    INDEX 01 00:00:00

  TRACK 02 AUDIO
    TITLE "KASHMIR (Live 2007)"
    PERFORMER "LED ZEPPELIN : Celebration Day"
    INDEX 01 14:08:18

  TRACK 03 AUDIO
    TITLE "SUPERHERO"
    PERFORMER "GENE THE WEREWOLF : Rock n' Roll Animal"
    INDEX 01 23:51:70

  TRACK 04 AUDIO
    TITLE "WE FALL"
    PERFORMER "LOVE.MIGHT.KILL : 2 Big 2 Fail"
    INDEX 01 28:02:52

  TRACK 05 AUDIO
    TITLE "TOOTH AND NAIL"
    PERFORMER "T&N : Slave to the Empire"
    INDEX 01 34:05:45

  TRACK 06 AUDIO
    TITLE "Introduction: LOVE POTION No. 9"
    PERFORMER "SEARCHERS : Meet the Searchers"
    INDEX 01 47:26:54

  TRACK 07 AUDIO
    TITLE "Classic rock: LOVE POTION No. 9"
    PERFORMER "TYGERS OF PAN TANG : The Cage (Digitally remastered)"
    INDEX 01 52:33:27


SEO [PR] おまとめローン 冷え性対策 坂本龍馬 動画掲示板 レンタルサーバー SEO