[ オンエアリストに戻る ]
TITLE "Heavy Metal Syndicate #1133"
FILE "2012-10-28.mp3" WAVE
  TRACK 01 AUDIO
    TITLE "ACCESS DENIED"
    PERFORMER "T&N : Slave to the Empire"
    INDEX 01 00:00:00

  TRACK 02 AUDIO
    TITLE "ASKING TOO MUCH"
    PERFORMER "ALL THAT REMAINS : A War You Cannot Win"
    INDEX 01 15:56:34

  TRACK 03 AUDIO
    TITLE "SKIN O' MY TEETH (Live 1992)"
    PERFORMER "MEGADETH : Countdown to Extinction - twentieth anniversary"
    INDEX 01 22:51:40

  TRACK 04 AUDIO
    TITLE "HURRICANE (Live 2011)"
    PERFORMER "Y&T : Live at the Mystic"
    INDEX 01 25:55:54

  TRACK 05 AUDIO
    TITLE "CLEAR EYES, FULL HEARTS"
    PERFORMER "AT THE SKYLINES : The Secrets to Life"
    INDEX 01 31:25:20

  TRACK 06 AUDIO
    TITLE "Introduction: MOVE OVER"
    PERFORMER "JANIS JOPLIN : Pearl (Digitally remastered)"
    INDEX 01 46:08:34

  TRACK 07 AUDIO
    TITLE "Classic rock: MOVE OVER"
    PERFORMER "CINDERELLA : Make a Difference Foundation - Stairway to Heaven / Highway to Hell (Compilation)"
    INDEX 01 51:35:16


SEO [PR] おまとめローン 冷え性対策 坂本龍馬 動画掲示板 レンタルサーバー SEO