[ オンエアリストに戻る ]
TITLE "Heavy Metal Syndicate #1132"
FILE "2012-10-21.mp3" WAVE
  TRACK 01 AUDIO
    TITLE "BURNING SUN"
    PERFORMER "HELLOWEEN : Burning Sun (EP)"
    INDEX 01 00:00:00

  TRACK 02 AUDIO
    TITLE "SLAVE TO THE EMPIRE"
    PERFORMER "T&N : Slave to the Empire"
    INDEX 01 18:08:45

  TRACK 03 AUDIO
    TITLE "XTC"
    PERFORMER "LOVE.MIGHT.KILL : 2 Big 2 Fail"
    INDEX 01 23:25:00

  TRACK 04 AUDIO
    TITLE "SACRIMONY (ANGEL OF AFTERLIFE)"
    PERFORMER "KAMELOT : Silverthorn"
    INDEX 01 28:10:06

  TRACK 05 AUDIO
    TITLE "MORE!"
    PERFORMER "DEVIN TOWNSEND PROJECT : Epicloud"
    INDEX 01 34:30:22

  TRACK 06 AUDIO
    TITLE "Introduction: SUBSTITUTE"
    PERFORMER "WHO : Substitute (single) (Digitally remastered)"
    INDEX 01 45:20:01

  TRACK 07 AUDIO
    TITLE "Classic rock: SUBSTITUTE"
    PERFORMER "GREAT WHITE : Great White (Digitally remastered)"
    INDEX 01 50:57:03


SEO [PR] おまとめローン 冷え性対策 坂本龍馬 動画掲示板 レンタルサーバー SEO