[ オンエアリストに戻る ]
TITLE "Heavy Metal Syndicate #1131"
FILE "2012-10-14.mp3" WAVE
  TRACK 01 AUDIO
    TITLE "BURN THE NIGHT"
    PERFORMER "LOVE.MIGHT.KILL : 2 Big 2 Fail"
    INDEX 01 00:00:00

  TRACK 02 AUDIO
    TITLE "EMPIRE"
    PERFORMER "DOKKEN : Broken Bones"
    INDEX 01 15:26:57

  TRACK 03 AUDIO
    TITLE "A WAR YOU CANNOT WIN"
    PERFORMER "ALL THAT REMAINS : A War You Cannot Win"
    INDEX 01 20:48:47

  TRACK 04 AUDIO
    TITLE "WHEN DEMONS COLLIDE"
    PERFORMER "BLOODBOUND : In the Name of Metal"
    INDEX 01 25:36:59

  TRACK 05 AUDIO
    TITLE "FATHER BACCHUS"
    PERFORMER "FOCUS : X"
    INDEX 01 32:14:71

  TRACK 06 AUDIO
    TITLE "Introduction: JUMPIN' JACK FLASH"
    PERFORMER "ROLLING STONES : Jumpin' Jack Flash (single) (Digitally remastered)"
    INDEX 01 45:55:53

  TRACK 07 AUDIO
    TITLE "Classic rock: JUMPIN' JACK FLASH (Live 1970)"
    PERFORMER "JOHNNY WINTER AND : Live (Digitally remastered)"
    INDEX 01 51:31:62


SEO [PR] おまとめローン 冷え性対策 坂本龍馬 動画掲示板 レンタルサーバー SEO