[ オンエアリストに戻る ]
TITLE "Heavy Metal Syndicate #1130"
FILE "2012-10-07.mp3" WAVE
  TRACK 01 AUDIO
    TITLE "WITCHTRIPPER"
    PERFORMER "DOWN : Down IV Part I - The Purple EP (EP)"
    INDEX 01 00:00:00

  TRACK 02 AUDIO
    TITLE "LIBERATION"
    PERFORMER "DEVIN TOWNSEND PROJECT : Epicloud"
    INDEX 01 21:26:21

  TRACK 03 AUDIO
    TITLE "STAND UP"
    PERFORMER "ALL THAT REMAINS : A War You Cannot Win"
    INDEX 01 27:11:41

  TRACK 04 AUDIO
    TITLE "143 PRINCESS"
    PERFORMER "AT THE SKYLINES : The Secrets to Life"
    INDEX 01 32:16:57

  TRACK 05 AUDIO
    TITLE "WATCH YOURSELF GROW"
    PERFORMER "MY DYNAMITE : My Dynamite"
    INDEX 01 37:23:37

  TRACK 06 AUDIO
    TITLE "Introduction: HUSH"
    PERFORMER "JOE SOUTH : Games People Play"
    INDEX 01 46:51:50

  TRACK 07 AUDIO
    TITLE "Classic rock: HUSH"
    PERFORMER "DEEP PURPLE : Shades of Deep Purple (Digitally remastered)"
    INDEX 01 50:34:74


SEO [PR] おまとめローン 冷え性対策 坂本龍馬 動画掲示板 レンタルサーバー SEO