[ オンエアリストに戻る ]
TITLE "Heavy Metal Syndicate #1129"
FILE "2012-09-30.mp3" WAVE
  TRACK 01 AUDIO
    TITLE "EYES OF THE YOUNG"
    PERFORMER "STEVE HARRIS : British Lion"
    INDEX 01 00:00:00

  TRACK 02 AUDIO
    TITLE "US AGAINST THE WORLD"
    PERFORMER "STEVE HARRIS : British Lion"
    INDEX 01 17:02:65

  TRACK 03 AUDIO
    TITLE "BONEBREAKER"
    PERFORMER "BLOODBOUND : In the Name of Metal"
    INDEX 01 22:39:53

  TRACK 04 AUDIO
    TITLE "RELEASE THE BEAST"
    PERFORMER "SNEW : What's It to Ya"
    INDEX 01 26:38:42

  TRACK 05 AUDIO
    TITLE "STRUGGLE ACTION"
    PERFORMER "ANTHEM : Burning Oath"
    INDEX 01 31:48:17

  TRACK 06 AUDIO
    TITLE "Introduction: MOTHER, FATHER"
    PERFORMER "JOURNEY : Escape (Digitally remastered)"
    INDEX 01 43:38:31

  TRACK 07 AUDIO
    TITLE "Classic rock: MOTHER FATHER (Live 2004)"
    PERFORMER "DREAM THEATER : Official Bootleg - Uncovered 2003-2005"
    INDEX 01 48:16:59


SEO [PR] おまとめローン 冷え性対策 坂本龍馬 動画掲示板 レンタルサーバー SEO