[ オンエアリストに戻る ]
TITLE "Heavy Metal Syndicate #1128"
FILE "2012-09-23.mp3" WAVE
  TRACK 01 AUDIO
    TITLE "BREATHE YOU IN"
    PERFORMER "PAPA ROACH : The Connection"
    INDEX 01 00:00:00

  TRACK 02 AUDIO
    TITLE "GUNRUNNING"
    PERFORMER "TEN : Heresy and Creed"
    INDEX 01 14:46:22

  TRACK 03 AUDIO
    TITLE "Reissue: YOU'VE GOT ANOTHER THING COMIN' (Live 1982)"
    PERFORMER "JUDAS PRIEST : Screaming for Vengeance - 30th anniversary edition"
    INDEX 01 22:45:45

  TRACK 04 AUDIO
    TITLE "TAKE IT OR LEAVE IT"
    PERFORMER "MY DYNAMITE : My Dynamite"
    INDEX 01 32:18:32

  TRACK 05 AUDIO
    TITLE "Introduction: NEW ORLEANS"
    PERFORMER "GARY U.S. BONDS : Dance 'til Quarter to Three with U.S. Bonds"
    INDEX 01 47:16:12

  TRACK 06 AUDIO
    TITLE "Classic rock: NEW ORLEANS"
    PERFORMER "GILLAN : Future Shock"
    INDEX 01 52:10:74


SEO [PR] おまとめローン 冷え性対策 坂本龍馬 動画掲示板 レンタルサーバー SEO