[ オンエアリストに戻る ]
TITLE "Heavy Metal Syndicate #1127"
FILE "2012-09-16.mp3" WAVE
  TRACK 01 AUDIO
    TITLE "VIBRATO"
    PERFORMER "PAUL GILBERT : Vibrato"
    INDEX 01 00:00:00

  TRACK 02 AUDIO
    TITLE "DON'T TELL ME YOU LOVE ME (Live 2012)"
    PERFORMER "NIGHT RANGER : 24 Strings & a Drummer - Live & Acoustic"
    INDEX 01 15:56:32

  TRACK 03 AUDIO
    TITLE "HOLLYWOOD FOREVER"
    PERFORMER "L.A. GUNS : Hollywood Forever"
    INDEX 01 22:25:58

  TRACK 04 AUDIO
    TITLE "ALL OVER YOU"
    PERFORMER "SNEW : What's It to Ya"
    INDEX 01 27:20:24

  TRACK 05 AUDIO
    TITLE "EVIL ONE"
    PERFORMER "ANTHEM : Evil One (single) / Burning Oath"
    INDEX 01 34:00:62

  TRACK 06 AUDIO
    TITLE "Introduction: GET BACK"
    PERFORMER "BEATLES : Let It Be (Digitally remastered)"
    INDEX 01 47:47:48

  TRACK 07 AUDIO
    TITLE "Classic rock: GET BACK"
    PERFORMER "STATUS QUO : Don't Stop"
    INDEX 01 51:30:51


SEO [PR] おまとめローン 冷え性対策 坂本龍馬 動画掲示板 レンタルサーバー SEO