[ オンエアリストに戻る ]
TITLE "Heavy Metal Syndicate #1126"
FILE "2012-09-09.mp3" WAVE
  TRACK 01 AUDIO
    TITLE "ABSOLUTE ZERO"
    PERFORMER "STONE SOUR : House of Gold & Bones part 1"
    INDEX 01 00:00:00

  TRACK 02 AUDIO
    TITLE "WHAT COULD HAVE BEEN LOVE"
    PERFORMER "AEROSMITH : What Could Have Been Love (download single)"
    INDEX 01 18:53:60

  TRACK 03 AUDIO
    TITLE "TEARING UP YOUR CITY"
    PERFORMER "SNEW : What's It to Ya"
    INDEX 01 26:46:14

  TRACK 04 AUDIO
    TITLE "UNBELIEVABLE"
    PERFORMER "TEN : Heresy and Creed"
    INDEX 01 31:12:54

  TRACK 05 AUDIO
    TITLE "CLEANSING THE HOSTS"
    PERFORMER "CRYPTOPSY : Cryptopsy"
    INDEX 01 37:37:03

  TRACK 06 AUDIO
    TITLE "Introduction: AIN'T NO LOVE IN THE HEART OF THE CITY"
    PERFORMER "BOBBY BLAND : Dreamer"
    INDEX 01 45:37:27

  TRACK 07 AUDIO
    TITLE "Classic rock: AIN'T NO LOVE IN THE HEART OF THE CITY"
    PERFORMER "WHITESNAKE : Snakebite (EP)"
    INDEX 01 50:10:22


SEO [PR] おまとめローン 冷え性対策 坂本龍馬 動画掲示板 レンタルサーバー SEO