[ オンエアリストに戻る ]
TITLE "Heavy Metal Syndicate #1125"
FILE "2012-09-02.mp3" WAVE
  TRACK 01 AUDIO
    TITLE "LOVER ALOT"
    PERFORMER "AEROSMITH : Lover Alot (download single)"
    INDEX 01 00:00:00

  TRACK 02 AUDIO
    TITLE "WHEN YOU CLOSE YOUR EYES (Live 2012)"
    PERFORMER "NIGHT RANGER : 24 Strings & a Drummer - Live & Acoustic"
    INDEX 01 15:04:27

  TRACK 03 AUDIO
    TITLE "BURN THE CANDLE DOWN"
    PERFORMER "RICHIE SAMBORA : Aftermath of the Lowdown"
    INDEX 01 21:16:05

  TRACK 04 AUDIO
    TITLE "GONE SOVEREIGN"
    PERFORMER "STONE SOUR : House of Gold & Bones part 1"
    INDEX 01 27:37:11

  TRACK 05 AUDIO
    TITLE "THE ROCKER"
    PERFORMER "GREASE HELMET : Grease Helmet"
    INDEX 01 32:30:24

  TRACK 06 AUDIO
    TITLE "Introduction: EVERYTHING COUNTS"
    PERFORMER "DEPECHE MODE : Construction Time Again"
    INDEX 01 46:01:45

  TRACK 07 AUDIO
    TITLE "Classic rock: EVERYTHING COUNTS"
    PERFORMER "IN FLAMES : Whoracle"
    INDEX 01 51:08:06


SEO [PR] おまとめローン 冷え性対策 坂本龍馬 動画掲示板 レンタルサーバー SEO