[ オンエアリストに戻る ]
TITLE "Heavy Metal Syndicate #1124"
FILE "2012-08-26.mp3" WAVE
  TRACK 01 AUDIO
    TITLE "SILENT GENOCIDE"
    PERFORMER "I AM I : Event Horizon"
    INDEX 01 00:00:00

  TRACK 02 AUDIO
    TITLE "LOVE REARS ITS UGLY HEAD"
    PERFORMER "TIM CHRISTENSEN : Superior (released 2008)"
    INDEX 01 20:57:49

  TRACK 03 AUDIO
    TITLE "GOD OF TERROR"
    PERFORMER "GRAVE DIGGER : Clash of the Gods"
    INDEX 01 26:47:54

  TRACK 04 AUDIO
    TITLE "SKYBOUND"
    PERFORMER "SLAVERY : Dawn of Mankind"
    INDEX 01 33:13:17

  TRACK 05 AUDIO
    TITLE "Introduction: D'YER MAK'ER"
    PERFORMER "LED ZEPPELIN : Houses of the Holy (Digitally remastered)"
    INDEX 01 46:09:07

  TRACK 06 AUDIO
    TITLE "Classic rock: D'YER MAK'ER"
    PERFORMER "SHERYL CROW : Encomium - A Tribute to Led Zeppelin (Compilation)"
    INDEX 01 51:27:09


SEO [PR] おまとめローン 冷え性対策 坂本龍馬 動画掲示板 レンタルサーバー SEO