[ オンエアリストに戻る ]
TITLE "Heavy Metal Syndicate #1123"
FILE "2012-08-19.mp3" WAVE
  TRACK 01 AUDIO
    TITLE "Reissue: SCREAMING FOR VENGEANCE (Live 1982)"
    PERFORMER "JUDAS PRIEST : Screaming for Vengeance - 30th anniversary edition"
    INDEX 01 00:00:00

  TRACK 02 AUDIO
    TITLE "MUSTANG BEBE"
    PERFORMER "GREASE HELMET : Grease Helmet"
    INDEX 01 24:48:61

  TRACK 03 AUDIO
    TITLE "I DON'T WANNA WANT YOU"
    PERFORMER "HESS : Living in Yesterday"
    INDEX 01 28:33:53

  TRACK 04 AUDIO
    TITLE "WEIGHT OF THE WORLD"
    PERFORMER "SHADOWS FALL : Fire from the Sky"
    INDEX 01 34:29:54

  TRACK 05 AUDIO
    TITLE "Introduction: A FOOL IN LOVE"
    PERFORMER "FRANKIE MILLER band : The Rock"
    INDEX 01 45:13:43

  TRACK 06 AUDIO
    TITLE "Classic rock: A FOOL IN LOVE"
    PERFORMER "UFO : No Heavy Petting (Digitally remastered)"
    INDEX 01 49:54:44


SEO [PR] おまとめローン 冷え性対策 坂本龍馬 動画掲示板 レンタルサーバー SEO