[ オンエアリストに戻る ]
TITLE "Heavy Metal Syndicate #1122"
FILE "2012-08-12.mp3" WAVE
  TRACK 01 AUDIO
    TITLE "Reissue: THE HELLION / ELECTRIC EYE (Live 1982)"
    PERFORMER "JUDAS PRIEST : Screaming for Vengeance - 30th anniversary edition"
    INDEX 01 00:00:00

  TRACK 02 AUDIO
    TITLE "SOLD OUR SOUL"
    PERFORMER "GREASE HELMET : Grease Helmet"
    INDEX 01 16:51:60

  TRACK 03 AUDIO
    TITLE "Reissue: STILL FIT TO BOOGIE (Live 1980)"
    PERFORMER "SAXON : Saxon (2012 reissue)"
    INDEX 01 23:10:17

  TRACK 04 AUDIO
    TITLE "COLLECTIVE SUICIDE SALVATION"
    PERFORMER "SLAVERY : Dawn of Mankind"
    INDEX 01 27:12:49

  TRACK 05 AUDIO
    TITLE "HISAME"
    PERFORMER "ANDRE MATOS : The Turn of the Lights (Special edition)"
    INDEX 01 35:33:08

  TRACK 06 AUDIO
    TITLE "Introduction: YOUR MAMA DON'T DANCE"
    PERFORMER "LOGGINS AND MESSINA : Loggins and Messina"
    INDEX 01 44:22:19

  TRACK 07 AUDIO
    TITLE "Classic rock: YOUR MAMA DON'T DANCE"
    PERFORMER "POISON : Open Up and Say...Ahh! (Digitally remastered)"
    INDEX 01 49:49:59


SEO [PR] おまとめローン 冷え性対策 坂本龍馬 動画掲示板 レンタルサーバー SEO