[ オンエアリストに戻る ]
TITLE "Heavy Metal Syndicate #1121"
FILE "2012-08-05.mp3" WAVE
  TRACK 01 AUDIO
    TITLE "WHEN A BLIND MAN CRIES (Live 2009)"
    PERFORMER "IAN GILLAN : Ian Gillan & Tony Iommi: WhoCares (Compilation)"
    INDEX 01 00:00:00

  TRACK 02 AUDIO
    TITLE "TUONELAN TUVILLA / 丸太小屋"
    PERFORMER "KORPIKLAANI : Manala / コルピと黄泉の世界"
    INDEX 01 19:57:55

  TRACK 03 AUDIO
    TITLE "REACH FOR YOU"
    PERFORMER "HESS : Living in Yesterday"
    INDEX 01 24:22:43

  TRACK 04 AUDIO
    TITLE "COURSE OF LIFE"
    PERFORMER "ANDRE MATOS : The Turn of the Lights"
    INDEX 01 30:34:29

  TRACK 05 AUDIO
    TITLE "USHER IN THE TWILIGHT"
    PERFORMER "WILDESTARR : A Tell Tale Heart"
    INDEX 01 35:44:65

  TRACK 06 AUDIO
    TITLE "Introduction: WALKIN' THE DOG"
    PERFORMER "SUMMERTIME BLUES BAND (feat. Rufus Thomas) : Picture Perfect"
    INDEX 01 44:22:42

  TRACK 07 AUDIO
    TITLE "Classic rock: WALKIN' THE DOG"
    PERFORMER "RATT : Ratt (EP)"
    INDEX 01 49:19:09


SEO [PR] おまとめローン 冷え性対策 坂本龍馬 動画掲示板 レンタルサーバー SEO